Обсуждения

16
Ребята, а макросъемка у неё есть, те смогу ли я паука кокого нибудь снять с 2-3 сантиметров?
Скажите в каком формате пишет эта камера и можно ли запись с камеры обрабатывать на компьютере в "Студии 9"
пишет в формате MOD вот пример: General Complete name : D:\onRec\PRG005\MOV074.MOD Format : MPEG-PS File size : 119 MiB Duration : 1mn 43s Overall bit rate : 9 640 Kbps Video ID : 224 (0xE0) Format : MPEG Video Format version : Version 2 Format profile : Main@Main Format settings, Matrix : Default Duration : 1mn 43s Bit rate mode : Variable Bit rate : 8 900 Kbps Width : 720 pixels Height : 576 pixels Display aspect ratio : 16:9 Frame rate : 25.000 fps Standard : PAL Colorimetry : 4:2:0 Scan type : Interlaced Scan order : Top Field First Bits/(Pixel*Frame) : 0.858 Stream size : 110 MiB (92%) Audio ID : 128 (0x80) Format : AC-3 Format/Info : Audio Coding 3 Duration : 1mn 43s Bit rate mode : Constant Bit rate : 384 Kbps Channel(s) : 2 channels Channel positions : L R Sampling rate : 48.0 KHz Video delay : -80ms Stream size : 4.74 MiB (4%)
Подскажите пж-та а насколько хватате заряда аккумулятора и какой нужно покупать дополнительный?!!!
BN-VF815U около 2,3 часов или чуть больше. (823Г около 3,3-4 часов)но и цена его тоже соответственная.Родного и первого аккумуляторов хватает за глаза.
Извини не "Г" а "U"
на час хватает можно купить дополнительный, официальный, будет на 2 хватать
как сие устройство ведет себя при резких встрясках.например при волне на катере?все таки hd.
Юзаю этот девайс месяц.Камера сказка-цена+качество=отлично. Одно не могу понять-как она пишет видео со звуком 5.1
Купил себе это чудо, доволен на 100%!!! Скажу честно, как специалист, она своих денег стоит при своих возможностях и качеству записи, но фотографирует как и в принципе я и ожидал хреноватенько. Но для этого у меня олимпус имеется)))
подскажите как эта камера пишет видео со звуком 5.1 с одним микрофоном? месяц юзаю не могу понять.
какое соотношение у записанного видео время/объем? то есть сколько минут например на 1 Гб выходит?
считайте сами скорость 1,17 мб/с час = 4236 мб
10 июня 2007
хорошая камера?
5 июля 2007
чем же она хорошая и насколько унеё хватает оккумулятор
на час